<?xml version="1.0" standalone="no"?>
<!DOCTYPE svg PUBLIC "-//W3C//DTD SVG 1.1//EN" "http://www.w3.org/Graphics/SVG/1.1/DTD/svg11.dtd" >
<svg xmlns="http://www.w3.org/2000/svg">
<metadata>
This is a custom SVG webfont generated by Font Squirrel.
Copyright   : Copyright Giegue 2009
Designer    : Giegue
Foundry     : httpfontstructfontshopcom
Foundry URL : httpwwwfontshopcom
</metadata>
<defs>
<font id="AppleKidRegular" horiz-adv-x="768" >
<font-face units-per-em="2048" ascent="1638" descent="-410" />
<missing-glyph horiz-adv-x="256" />
<glyph unicode=" "  horiz-adv-x="256" />
<glyph unicode="&#x09;" horiz-adv-x="256" />
<glyph unicode="&#xa0;" horiz-adv-x="256" />
<glyph unicode="!" horiz-adv-x="256" d="M0 0v128h128v-128h-128zM0 256v768h128v-768h-128z" />
<glyph unicode="&#x22;" horiz-adv-x="512" d="M0 768v384h128v-384h-128zM256 768v384h128v-384h-128z" />
<glyph unicode="#" d="M0 256v128h128v256h-128v128h128v256h128v-256h128v256h128v-256h128v-128h-128v-256h128v-128h-128v-256h-128v256h-128v-256h-128v256h-128zM256 384h128v256h-128v-256z" />
<glyph unicode="$" d="M0 128v256h128v-256h-128zM0 640v256h128v-256h-128zM128 0v128h128v384h-128v128h128v256h-128v128h384v-128h-128v-256h128v-128h-128v-384h128v-128h-384zM512 128v384h128v-384h-128zM512 768v128h128v-128h-128z" />
<glyph unicode="%" d="M0 0v128h128v-128h-128zM0 768v256h256v-256h-256zM128 128v256h128v-256h-128zM256 384v256h128v-256h-128zM384 0v256h256v-256h-256zM384 640v256h128v-256h-128zM512 896v128h128v-128h-128z" />
<glyph unicode="&#x26;" d="M0 128v384h128v-384h-128zM0 640v256h128v-256h-128zM128 0v128h256v-128h-256zM128 512v128h256v-128h-256zM128 896v128h256v-128h-256zM384 128v384h128v-128h128v-128h-128v-128h-128zM384 640v256h128v-256h-128zM512 0v128h128v-128h-128z" />
<glyph unicode="'" horiz-adv-x="256" d="M0 768v384h128v-384h-128z" />
<glyph unicode="(" horiz-adv-x="512" d="M0 0v640h128v-640h-128zM128 0h128v-256h-128v256zM128 640v256h128v-256h-128zM256 -256h128v-128h-128v128zM256 896v128h128v-128h-128z" />
<glyph unicode=")" horiz-adv-x="512" d="M0 -256h128v-128h-128v128zM0 896v128h128v-128h-128zM128 0h128v-256h-128v256zM128 640v256h128v-256h-128zM256 0v640h128v-640h-128z" />
<glyph unicode="*" horiz-adv-x="512" d="M0 768v128h128v-128h-128zM0 1024v128h128v128h128v-128h128v-128h-128v-128h-128v128h-128zM256 768v128h128v-128h-128z" />
<glyph unicode="+" d="M0 384v128h256v256h128v-256h256v-128h-256v-256h-128v256h-256z" />
<glyph unicode="," horiz-adv-x="384" d="M0 -128h128v-128h-128v128zM128 -128v256h128v-256h-128z" />
<glyph unicode="-" d="M0 384v128h640v-128h-640z" />
<glyph unicode="." horiz-adv-x="256" d="M0 0v128h128v-128h-128z" />
<glyph unicode="/" d="M0 0v128h128v-128h-128zM128 128v256h128v-256h-128zM256 384v256h128v-256h-128zM384 640v256h128v-256h-128zM512 896v128h128v-128h-128z" />
<glyph unicode="0" horiz-adv-x="640" d="M0 128v768h128v-768h-128zM128 0v128h256v-128h-256zM128 896v128h256v-128h-256zM384 128v768h128v-768h-128z" />
<glyph unicode="1" horiz-adv-x="384" d="M0 768v128h128v128h128v-1024h-128v768h-128z" />
<glyph unicode="2" horiz-adv-x="640" d="M0 0v256h128v-128h384v-128h-512zM0 768v128h128v-128h-128zM128 256v256h128v-256h-128zM128 896v128h256v-128h-256zM256 512v128h128v-128h-128zM384 640v256h128v-256h-128z" />
<glyph unicode="3" horiz-adv-x="640" d="M0 128v256h128v-256h-128zM0 768v128h128v-128h-128zM128 0v128h256v-128h-256zM128 512v128h256v-128h-256zM128 896v128h256v-128h-256zM384 128v384h128v-384h-128zM384 640v256h128v-256h-128z" />
<glyph unicode="4" d="M0 256v256h128v-128h256v384h-128v128h128v128h128v-640h128v-128h-128v-256h-128v256h-384zM128 512v256h128v-256h-128z" />
<glyph unicode="5" horiz-adv-x="640" d="M0 128v256h128v-256h-128zM0 640v384h512v-128h-384v-128h256v-128h-384zM128 0v128h256v-128h-256zM384 128v512h128v-512h-128z" />
<glyph unicode="6" horiz-adv-x="640" d="M0 128v768h128v-128h256v-128h-256v-512h-128zM128 0v128h256v-128h-256zM128 896v128h256v-128h-256zM384 128v512h128v-512h-128z" />
<glyph unicode="7" horiz-adv-x="640" d="M0 896v128h512v-256h-128v128h-384zM128 0v384h128v-384h-128zM256 384v384h128v-384h-128z" />
<glyph unicode="8" horiz-adv-x="640" d="M0 128v384h128v-384h-128zM0 640v256h128v-256h-128zM128 0v128h256v-128h-256zM128 512v128h256v-128h-256zM128 896v128h256v-128h-256zM384 128v384h128v-384h-128zM384 640v256h128v-256h-128z" />
<glyph unicode="9" horiz-adv-x="640" d="M0 128v128h128v-128h-128zM0 512v384h128v-384h-128zM128 0v128h256v-128h-256zM128 384v128h256v384h128v-768h-128v256h-256zM128 896v128h256v-128h-256z" />
<glyph unicode=":" horiz-adv-x="256" d="M0 128v128h128v-128h-128zM0 640v128h128v-128h-128z" />
<glyph unicode=";" horiz-adv-x="384" d="M0 -128h128v-128h-128v128zM128 -128v256h128v-256h-128zM128 640v128h128v-128h-128z" />
<glyph unicode="&#x3c;" d="M0 384v128h128v-128h-128zM128 256v128h256v-128h-256zM128 512v128h256v-128h-256zM384 128v128h256v-128h-256zM384 640v128h256v-128h-256z" />
<glyph unicode="=" d="M0 128v128h640v-128h-640zM0 640v128h640v-128h-640z" />
<glyph unicode="&#x3e;" d="M0 128v128h256v-128h-256zM0 640v128h256v-128h-256zM256 256v128h256v-128h-256zM256 512v128h256v-128h-256zM512 384v128h128v-128h-128z" />
<glyph unicode="?" horiz-adv-x="640" d="M0 640v256h128v-256h-128zM128 0v128h128v-128h-128zM128 256v256h128v-256h-128zM128 896v128h256v-128h-256zM256 512v128h128v-128h-128zM384 640v256h128v-256h-128z" />
<glyph unicode="@" d="M0 128v768h128v-768h-128zM128 0v128h384v-128h-384zM128 896v128h384v-128h-384zM256 256v384h128v-256h128v-128h-256zM512 384v512h128v-512h-128z" />
<glyph unicode="A" horiz-adv-x="896" d="M0 0v384h128v-384h-128zM128 384v384h128v-256h256v256h128v-384h-512zM256 768v256h256v-256h-256zM640 0v384h128v-384h-128z" />
<glyph unicode="B" d="M0 0v1024h512v-128h-384v-256h384v-128h-384v-384h384v-128h-512zM512 128v384h128v-384h-128zM512 640v256h128v-256h-128z" />
<glyph unicode="C" d="M0 128v768h128v-768h-128zM128 0v128h384v-128h-384zM128 896v128h384v-128h-384zM512 128v128h128v-128h-128zM512 768v128h128v-128h-128z" />
<glyph unicode="D" d="M0 0v1024h384v-128h-256v-768h256v-128h-384zM384 128v128h128v-128h-128zM384 768v128h128v-128h-128zM512 256v512h128v-512h-128z" />
<glyph unicode="E" horiz-adv-x="640" d="M0 0v1024h512v-128h-384v-256h384v-128h-384v-384h384v-128h-512z" />
<glyph unicode="F" horiz-adv-x="640" d="M0 0v1024h512v-128h-384v-256h256v-128h-256v-512h-128z" />
<glyph unicode="G" d="M0 128v768h128v-768h-128zM128 0v128h256v-128h-256zM128 896v128h384v-128h-384zM384 128v128h128v256h-128v128h256v-640h-128v128h-128zM512 768v128h128v-128h-128z" />
<glyph unicode="H" d="M0 0v1024h128v-384h384v384h128v-1024h-128v512h-384v-512h-128z" />
<glyph unicode="I" horiz-adv-x="256" d="M0 0v1024h128v-1024h-128z" />
<glyph unicode="J" horiz-adv-x="640" d="M0 128v256h128v-256h-128zM128 0v128h256v-128h-256zM384 128v896h128v-896h-128z" />
<glyph unicode="K" d="M0 0v1024h128v-256h128v-128h-128v-640h-128zM256 384v256h128v-256h-128zM256 768v128h128v-128h-128zM384 128v256h128v-256h-128zM384 896v128h128v-128h-128zM512 0v128h128v-128h-128z" />
<glyph unicode="L" horiz-adv-x="640" d="M0 0v1024h128v-896h384v-128h-512z" />
<glyph unicode="M" horiz-adv-x="1024" d="M0 0v1024h128v-256h128v-256h-128v-512h-128zM256 256v256h128v-256h-128zM384 0v256h128v-256h-128zM512 256v256h128v-256h-128zM640 512v256h128v256h128v-1024h-128v512h-128z" />
<glyph unicode="N" d="M0 0v1024h128v-128h128v-256h-128v-640h-128zM256 384v256h128v-256h-128zM384 128v256h128v640h128v-1024h-128v128h-128z" />
<glyph unicode="O" d="M0 128v768h128v-768h-128zM128 0v128h384v-128h-384zM128 896v128h384v-128h-384zM512 128v768h128v-768h-128z" />
<glyph unicode="P" d="M0 0v1024h512v-128h-384v-256h384v-128h-384v-512h-128zM512 640v256h128v-256h-128z" />
<glyph unicode="Q" d="M0 128v768h128v-768h-128zM128 0v128h256v-128h-256zM128 896v128h384v-128h-384zM256 256v128h128v-128h-128zM384 128v128h128v-128h-128zM512 0v128h128v-128h-128zM512 256v640h128v-640h-128z" />
<glyph unicode="R" d="M0 0v1024h512v-128h-384v-256h384v-384h-128v256h-256v-512h-128zM512 0v256h128v-256h-128zM512 640v256h128v-256h-128z" />
<glyph unicode="S" d="M0 128v256h128v-256h-128zM0 640v256h128v-256h-128zM128 0v128h384v-128h-384zM128 512v128h384v-128h-384zM128 896v128h384v-128h-384zM512 128v384h128v-384h-128zM512 768v128h128v-128h-128z" />
<glyph unicode="T" d="M0 896v128h640v-128h-256v-896h-128v896h-256z" />
<glyph unicode="U" d="M0 128v896h128v-896h-128zM128 0v128h384v-128h-384zM512 128v896h128v-896h-128z" />
<glyph unicode="V" horiz-adv-x="896" d="M0 640v384h128v-384h-128zM128 256v384h128v-384h-128zM256 0v256h256v-256h-256zM512 256v384h128v-384h-128zM640 640v384h128v-384h-128z" />
<glyph unicode="W" horiz-adv-x="1024" d="M0 640v384h128v-384h-128zM128 256v384h128v-384h-128zM256 0v256h128v-256h-128zM384 256v768h128v-768h-128zM512 0v256h128v-256h-128zM640 256v384h128v-384h-128zM768 640v384h128v-384h-128z" />
<glyph unicode="X" d="M0 0v256h128v-256h-128zM0 896v128h128v-128h-128zM128 256v256h128v-256h-128zM128 640v256h128v-256h-128zM256 512v128h128v-128h-128zM384 256v256h128v-256h-128zM384 640v256h128v-256h-128zM512 0v256h128v-256h-128zM512 896v128h128v-128h-128z" />
<glyph unicode="Y" d="M0 896v128h128v-128h-128zM128 640v256h128v-256h-128zM256 0v640h128v-640h-128zM384 640v256h128v-256h-128zM512 896v128h128v-128h-128z" />
<glyph unicode="Z" horiz-adv-x="640" d="M0 0v256h128v-128h384v-128h-512zM0 896v128h512v-256h-128v128h-384zM128 256v256h128v-256h-128zM256 512v256h128v-256h-128z" />
<glyph unicode="[" horiz-adv-x="384" d="M0 0v1024h256v-128h-128v-768h128v-128h-256z" />
<glyph unicode="\" d="M0 896v128h128v-128h-128zM128 640v256h128v-256h-128zM256 384v256h128v-256h-128zM384 128v256h128v-256h-128zM512 0v128h128v-128h-128z" />
<glyph unicode="]" horiz-adv-x="384" d="M0 0v128h128v768h-128v128h256v-1024h-256z" />
<glyph unicode="^" d="M0 640v128h128v-128h-128zM128 768v256h128v-256h-128zM256 1024v256h128v-256h-128zM384 768v256h128v-256h-128zM512 640v128h128v-128h-128z" />
<glyph unicode="_" d="M0 0v128h640v-128h-640z" />
<glyph unicode="`" horiz-adv-x="512" d="M0 1152v128h128v-128h-128zM128 1024v128h128v-128h-128zM256 896v128h128v-128h-128z" />
<glyph unicode="a" d="M0 128v256h128v-256h-128zM128 0v128h256v-128h-256zM128 384v128h256v128h128v-512h-128v256h-256zM128 640v128h256v-128h-256zM512 0v128h128v-128h-128z" />
<glyph unicode="b" horiz-adv-x="640" d="M0 0v1024h128v-256h256v-128h-256v-512h256v-128h-384zM384 128v512h128v-512h-128z" />
<glyph unicode="c" horiz-adv-x="640" d="M0 128v512h128v-512h-128zM128 0v128h256v-128h-256zM128 640v128h256v-128h-256zM384 128v128h128v-128h-128zM384 512v128h128v-128h-128z" />
<glyph unicode="d" horiz-adv-x="640" d="M0 128v512h128v-512h-128zM128 0v128h256v512h-256v128h256v256h128v-1024h-384z" />
<glyph unicode="e" horiz-adv-x="640" d="M0 128v512h128v-128h256v128h128v-256h-384v-256h-128zM128 0v128h256v-128h-256zM128 640v128h256v-128h-256zM384 128v128h128v-128h-128z" />
<glyph unicode="f" horiz-adv-x="512" d="M0 640v128h128v128h128v-128h128v-128h-128v-640h-128v640h-128zM256 896v128h128v-128h-128z" />
<glyph unicode="g" horiz-adv-x="640" d="M0 -128h128v-128h-128v128zM0 128v512h128v-512h-128zM128 0v128h256v512h-256v128h384v-1024h-128v256h-256zM128 -256h256v-128h-256v128z" />
<glyph unicode="h" horiz-adv-x="640" d="M0 0v1024h128v-256h256v-128h-256v-640h-128zM384 0v640h128v-640h-128z" />
<glyph unicode="i" horiz-adv-x="256" d="M0 0v768h128v-768h-128zM0 896v128h128v-128h-128z" />
<glyph unicode="j" horiz-adv-x="384" d="M0 -256h128v-128h-128v128zM128 -256v1024h128v-1024h-128zM128 896v128h128v-128h-128z" />
<glyph unicode="k" horiz-adv-x="640" d="M0 0v1024h128v-512h128v-256h-128v-256h-128zM256 128v128h128v-128h-128zM256 512v128h128v-128h-128zM384 0v128h128v-128h-128zM384 640v128h128v-128h-128z" />
<glyph unicode="l" horiz-adv-x="256" d="M0 0v1024h128v-1024h-128z" />
<glyph unicode="m" horiz-adv-x="1024" d="M0 0v768h384v-128h-256v-640h-128zM384 0v640h128v-640h-128zM512 640v128h256v-128h-256zM768 0v640h128v-640h-128z" />
<glyph unicode="n" horiz-adv-x="640" d="M0 0v768h384v-128h-256v-640h-128zM384 0v640h128v-640h-128z" />
<glyph unicode="o" horiz-adv-x="640" d="M0 128v512h128v-512h-128zM128 0v128h256v-128h-256zM128 640v128h256v-128h-256zM384 128v512h128v-512h-128z" />
<glyph unicode="p" horiz-adv-x="640" d="M0 -384v1152h384v-128h-256v-512h256v-128h-256v-384h-128zM384 128v512h128v-512h-128z" />
<glyph unicode="q" horiz-adv-x="640" d="M0 128v512h128v-512h-128zM128 0v128h256v512h-256v128h384v-1152h-128v384h-256z" />
<glyph unicode="r" horiz-adv-x="512" d="M0 0v768h128v-128h128v-128h-128v-512h-128zM256 640v128h128v-128h-128z" />
<glyph unicode="s" horiz-adv-x="640" d="M0 0v128h384v-128h-384zM0 512v128h128v-128h-128zM128 384v128h256v-128h-256zM128 640v128h256v-128h-256zM384 128v256h128v-256h-128z" />
<glyph unicode="t" horiz-adv-x="512" d="M0 640v128h128v256h128v-256h128v-128h-128v-512h-128v512h-128zM256 0v128h128v-128h-128z" />
<glyph unicode="u" horiz-adv-x="640" d="M0 128v640h128v-640h-128zM128 0v128h256v640h128v-768h-384z" />
<glyph unicode="v" d="M0 512v256h128v-256h-128zM128 256v256h128v-256h-128zM256 0v256h128v-256h-128zM384 256v256h128v-256h-128zM512 512v256h128v-256h-128z" />
<glyph unicode="w" horiz-adv-x="1024" d="M0 512v256h128v-256h-128zM128 256v256h128v-256h-128zM256 0v256h128v-256h-128zM384 256v256h128v-256h-128zM512 0v256h128v-256h-128zM640 256v256h128v-256h-128zM768 512v256h128v-256h-128z" />
<glyph unicode="x" horiz-adv-x="640" d="M0 0v384h128v-384h-128zM0 512v256h128v-256h-128zM128 384v128h256v-128h-256zM384 0v384h128v-384h-128zM384 512v256h128v-256h-128z" />
<glyph unicode="y" horiz-adv-x="640" d="M0 -128h128v-128h-128v128zM0 128v640h128v-640h-128zM128 0v128h256v640h128v-1024h-128v256h-256zM128 -256h256v-128h-256v128z" />
<glyph unicode="z" horiz-adv-x="640" d="M0 0v256h128v-128h384v-128h-512zM0 640v128h512v-256h-128v128h-384zM128 256v128h128v-128h-128zM256 384v128h128v-128h-128z" />
<glyph unicode="{" horiz-adv-x="512" d="M0 256v128h128v-128h-128zM128 -256v512h128v-512h-128zM128 384v512h128v-512h-128zM256 -256h128v-128h-128v128zM256 896v128h128v-128h-128z" />
<glyph unicode="|" horiz-adv-x="256" d="M0 -384v1408h128v-1408h-128z" />
<glyph unicode="}" horiz-adv-x="512" d="M0 -256h128v-128h-128v128zM0 896v128h128v-128h-128zM128 -256v512h128v-512h-128zM128 384v512h128v-512h-128zM256 256v128h128v-128h-128z" />
<glyph unicode="~" horiz-adv-x="896" d="M0 384v128h128v-128h-128zM128 512v128h256v-128h-256zM384 384v128h256v-128h-256zM640 512v128h128v-128h-128z" />
<glyph unicode="&#xaa;" d="M0 128v256h128v-256h-128zM128 0v128h256v-128h-256zM128 384v128h256v128h128v-512h-128v256h-256zM128 640v128h256v-128h-256zM512 0v128h128v-128h-128z" />
<glyph unicode="&#xad;" d="M0 384v128h640v-128h-640z" />
<glyph unicode="&#xb2;" horiz-adv-x="640" d="M0 0v256h128v-128h384v-128h-512zM0 768v128h128v-128h-128zM128 256v256h128v-256h-128zM128 896v128h256v-128h-256zM256 512v128h128v-128h-128zM384 640v256h128v-256h-128z" />
<glyph unicode="&#xb3;" horiz-adv-x="640" d="M0 128v256h128v-256h-128zM0 768v128h128v-128h-128zM128 0v128h256v-128h-256zM128 512v128h256v-128h-256zM128 896v128h256v-128h-256zM384 128v384h128v-384h-128zM384 640v256h128v-256h-128z" />
<glyph unicode="&#xb9;" horiz-adv-x="384" d="M0 768v128h128v128h128v-1024h-128v768h-128z" />
<glyph unicode="&#xba;" horiz-adv-x="640" d="M0 128v512h128v-512h-128zM128 0v128h256v-128h-256zM128 640v128h256v-128h-256zM384 128v512h128v-512h-128z" />
<glyph unicode="&#xc0;" horiz-adv-x="896" d="M64 1402v128h128v-128h-128zM192 1274v128h128v-128h-128zM320 1146v128h128v-128h-128zM0 0v384h128v-384h-128zM128 384v384h128v-256h256v256h128v-384h-512zM256 768v256h256v-256h-256zM640 0v384h128v-384h-128z" />
<glyph unicode="&#xc2;" horiz-adv-x="896" d="M64 1146v128h128v-128h-128zM192 1274v256h128v-256h-128zM320 1530v256h128v-256h-128zM448 1274v256h128v-256h-128zM576 1146v128h128v-128h-128zM0 0v384h128v-384h-128zM128 384v384h128v-256h256v256h128v-384h-512zM256 768v256h256v-256h-256zM640 0v384h128 v-384h-128z" />
<glyph unicode="&#xc3;" horiz-adv-x="896" d="M0 1146v128h128v-128h-128zM128 1274v128h256v-128h-256zM384 1146v128h256v-128h-256zM640 1274v128h128v-128h-128zM0 0v384h128v-384h-128zM128 384v384h128v-256h256v256h128v-384h-512zM256 768v256h256v-256h-256zM640 0v384h128v-384h-128z" />
<glyph unicode="&#xc8;" horiz-adv-x="640" d="M-64 1402v128h128v-128h-128zM64 1274v128h128v-128h-128zM192 1146v128h128v-128h-128zM0 0v1024h512v-128h-384v-256h384v-128h-384v-384h384v-128h-512z" />
<glyph unicode="&#xca;" horiz-adv-x="640" d="M-64 1146v128h128v-128h-128zM64 1274v256h128v-256h-128zM192 1530v256h128v-256h-128zM320 1274v256h128v-256h-128zM448 1146v128h128v-128h-128zM0 0v1024h512v-128h-384v-256h384v-128h-384v-384h384v-128h-512z" />
<glyph unicode="&#xcc;" horiz-adv-x="256" d="M-256 1402v128h128v-128h-128zM-128 1274v128h128v-128h-128zM0 1146v128h128v-128h-128zM0 0v1024h128v-1024h-128z" />
<glyph unicode="&#xce;" horiz-adv-x="256" d="M-256 1146v128h128v-128h-128zM-128 1274v256h128v-256h-128zM0 1530v256h128v-256h-128zM128 1274v256h128v-256h-128zM256 1146v128h128v-128h-128zM0 0v1024h128v-1024h-128z" />
<glyph unicode="&#xd1;" d="M-64 1146v128h128v-128h-128zM64 1274v128h256v-128h-256zM320 1146v128h256v-128h-256zM576 1274v128h128v-128h-128zM0 0v1024h128v-128h128v-256h-128v-640h-128zM256 384v256h128v-256h-128zM384 128v256h128v640h128v-1024h-128v128h-128z" />
<glyph unicode="&#xd2;" d="M0 1402v128h128v-128h-128zM128 1274v128h128v-128h-128zM256 1146v128h128v-128h-128zM0 128v768h128v-768h-128zM128 0v128h384v-128h-384zM128 896v128h384v-128h-384zM512 128v768h128v-768h-128z" />
<glyph unicode="&#xd4;" d="M0 1146v128h128v-128h-128zM128 1274v256h128v-256h-128zM256 1530v256h128v-256h-128zM384 1274v256h128v-256h-128zM512 1146v128h128v-128h-128zM0 128v768h128v-768h-128zM128 0v128h384v-128h-384zM128 896v128h384v-128h-384zM512 128v768h128v-768h-128z" />
<glyph unicode="&#xd5;" d="M-64 1146v128h128v-128h-128zM64 1274v128h256v-128h-256zM320 1146v128h256v-128h-256zM576 1274v128h128v-128h-128zM0 128v768h128v-768h-128zM128 0v128h384v-128h-384zM128 896v128h384v-128h-384zM512 128v768h128v-768h-128z" />
<glyph unicode="&#xd9;" d="M0 1402v128h128v-128h-128zM128 1274v128h128v-128h-128zM256 1146v128h128v-128h-128zM0 128v896h128v-896h-128zM128 0v128h384v-128h-384zM512 128v896h128v-896h-128z" />
<glyph unicode="&#xdb;" d="M0 1146v128h128v-128h-128zM128 1274v256h128v-256h-128zM256 1530v256h128v-256h-128zM384 1274v256h128v-256h-128zM512 1146v128h128v-128h-128zM0 128v896h128v-896h-128zM128 0v128h384v-128h-384zM512 128v896h128v-896h-128z" />
<glyph unicode="&#xe0;" d="M-64 1146v128h128v-128h-128zM64 1018v128h128v-128h-128zM192 890v128h128v-128h-128zM0 128v256h128v-256h-128zM128 0v128h256v-128h-256zM128 384v128h256v128h128v-512h-128v256h-256zM128 640v128h256v-128h-256zM512 0v128h128v-128h-128z" />
<glyph unicode="&#xe2;" d="M-64 890v128h128v-128h-128zM64 1018v256h128v-256h-128zM192 1274v256h128v-256h-128zM320 1018v256h128v-256h-128zM448 890v128h128v-128h-128zM0 128v256h128v-256h-128zM128 0v128h256v-128h-256zM128 384v128h256v128h128v-512h-128v256h-256zM128 640v128h256 v-128h-256zM512 0v128h128v-128h-128z" />
<glyph unicode="&#xe3;" d="M-128 890v128h128v-128h-128zM0 1018v128h256v-128h-256zM256 890v128h256v-128h-256zM512 1018v128h128v-128h-128zM0 128v256h128v-256h-128zM128 0v128h256v-128h-256zM128 384v128h256v128h128v-512h-128v256h-256zM128 640v128h256v-128h-256zM512 0v128h128v-128 h-128z" />
<glyph unicode="&#xe8;" horiz-adv-x="640" d="M-64 1146v128h128v-128h-128zM64 1018v128h128v-128h-128zM192 890v128h128v-128h-128zM0 128v512h128v-128h256v128h128v-256h-384v-256h-128zM128 0v128h256v-128h-256zM128 640v128h256v-128h-256zM384 128v128h128v-128h-128z" />
<glyph unicode="&#xea;" horiz-adv-x="640" d="M-64 890v128h128v-128h-128zM64 1018v256h128v-256h-128zM192 1274v256h128v-256h-128zM320 1018v256h128v-256h-128zM448 890v128h128v-128h-128zM0 128v512h128v-128h256v128h128v-256h-384v-256h-128zM128 0v128h256v-128h-256zM128 640v128h256v-128h-256zM384 128 v128h128v-128h-128z" />
<glyph unicode="&#xec;" horiz-adv-x="256" d="M-256 1402v128h128v-128h-128zM-128 1274v128h128v-128h-128zM0 1146v128h128v-128h-128zM0 0v768h128v-768h-128zM0 896v128h128v-128h-128z" />
<glyph unicode="&#xee;" horiz-adv-x="256" d="M-256 1146v128h128v-128h-128zM-128 1274v256h128v-256h-128zM0 1530v256h128v-256h-128zM128 1274v256h128v-256h-128zM256 1146v128h128v-128h-128zM0 0v768h128v-768h-128zM0 896v128h128v-128h-128z" />
<glyph unicode="&#xf1;" horiz-adv-x="640" d="M-128 890v128h128v-128h-128zM0 1018v128h256v-128h-256zM256 890v128h256v-128h-256zM512 1018v128h128v-128h-128zM0 0v768h384v-128h-256v-640h-128zM384 0v640h128v-640h-128z" />
<glyph unicode="&#xf2;" horiz-adv-x="640" d="M-64 1146v128h128v-128h-128zM64 1018v128h128v-128h-128zM192 890v128h128v-128h-128zM0 128v512h128v-512h-128zM128 0v128h256v-128h-256zM128 640v128h256v-128h-256zM384 128v512h128v-512h-128z" />
<glyph unicode="&#xf4;" horiz-adv-x="640" d="M-64 890v128h128v-128h-128zM64 1018v256h128v-256h-128zM192 1274v256h128v-256h-128zM320 1018v256h128v-256h-128zM448 890v128h128v-128h-128zM0 128v512h128v-512h-128zM128 0v128h256v-128h-256zM128 640v128h256v-128h-256zM384 128v512h128v-512h-128z" />
<glyph unicode="&#xf5;" horiz-adv-x="640" d="M-128 890v128h128v-128h-128zM0 1018v128h256v-128h-256zM256 890v128h256v-128h-256zM512 1018v128h128v-128h-128zM0 128v512h128v-512h-128zM128 0v128h256v-128h-256zM128 640v128h256v-128h-256zM384 128v512h128v-512h-128z" />
<glyph unicode="&#xf9;" horiz-adv-x="640" d="M-64 1146v128h128v-128h-128zM64 1018v128h128v-128h-128zM192 890v128h128v-128h-128zM0 128v640h128v-640h-128zM128 0v128h256v640h128v-768h-384z" />
<glyph unicode="&#xfb;" horiz-adv-x="640" d="M-64 890v128h128v-128h-128zM64 1018v256h128v-256h-128zM192 1274v256h128v-256h-128zM320 1018v256h128v-256h-128zM448 890v128h128v-128h-128zM0 128v640h128v-640h-128zM128 0v128h256v640h128v-768h-384z" />
<glyph unicode="&#x152;" horiz-adv-x="1408" d="M768 0v1024h512v-128h-384v-256h384v-128h-384v-384h384v-128h-512zM0 128v768h128v-768h-128zM128 0v128h384v-128h-384zM128 896v128h384v-128h-384zM512 128v768h128v-768h-128z" />
<glyph unicode="&#x153;" horiz-adv-x="1280" d="M640 128v512h128v-128h256v128h128v-256h-384v-256h-128zM768 0v128h256v-128h-256zM768 640v128h256v-128h-256zM1024 128v128h128v-128h-128zM0 128v512h128v-512h-128zM128 0v128h256v-128h-256zM128 640v128h256v-128h-256zM384 128v512h128v-512h-128z" />
<glyph unicode="&#x2c6;" d="M0 640v128h128v-128h-128zM128 768v256h128v-256h-128zM256 1024v256h128v-256h-128zM384 768v256h128v-256h-128zM512 640v128h128v-128h-128z" />
<glyph unicode="&#x2dc;" horiz-adv-x="256" d="M-384 122v128h128v-128h-128zM-256 250v128h256v-128h-256zM0 122v128h256v-128h-256zM256 250v128h128v-128h-128z" />
<glyph unicode="&#x2013;" horiz-adv-x="1024" d="M0 384v128h896v-128h-896z" />
<glyph unicode="&#x2014;" horiz-adv-x="2048" d="M0 384v128h1920v-128h-1920z" />
<glyph unicode="&#x2018;" horiz-adv-x="384" d="M0 768v256h128v-256h-128zM128 1024v128h128v-128h-128z" />
<glyph unicode="&#x2019;" horiz-adv-x="384" d="M0 768v128h128v-128h-128zM128 896v256h128v-256h-128z" />
<glyph unicode="&#x201c;" horiz-adv-x="640" d="M0 768v256h128v-256h-128zM128 1024v128h128v-128h-128zM256 768v256h128v-256h-128zM384 1024v128h128v-128h-128z" />
<glyph unicode="&#x201d;" horiz-adv-x="640" d="M0 768v128h128v-128h-128zM128 896v256h128v-256h-128zM256 768v128h128v-128h-128zM384 896v256h128v-256h-128z" />
<glyph unicode="&#x2026;" d="M512 0v128h128v-128h-128zM256 0v128h128v-128h-128zM0 0v128h128v-128h-128z" />
<glyph unicode="&#x2039;" d="M0 384v128h128v-128h-128zM128 256v128h256v-128h-256zM128 512v128h256v-128h-256zM384 128v128h256v-128h-256zM384 640v128h256v-128h-256z" />
<glyph unicode="&#x203a;" d="M0 128v128h256v-128h-256zM0 640v128h256v-128h-256zM256 256v128h256v-128h-256zM256 512v128h256v-128h-256zM512 384v128h128v-128h-128z" />
<glyph unicode="&#x2122;" horiz-adv-x="1792" d="M768 0v1024h128v-256h128v-256h-128v-512h-128zM1024 256v256h128v-256h-128zM1152 0v256h128v-256h-128zM1280 256v256h128v-256h-128zM1408 512v256h128v256h128v-1024h-128v512h-128zM0 896v128h640v-128h-256v-896h-128v896h-256z" />
<glyph unicode="&#xe000;" horiz-adv-x="770" d="M0 770h770v-770h-770v770z" />
<glyph unicode="&#xfb01;" d="M512 0v768h128v-768h-128zM512 896v128h128v-128h-128zM0 640v128h128v128h128v-128h128v-128h-128v-640h-128v640h-128zM256 896v128h128v-128h-128z" />
<glyph unicode="&#xfb02;" d="M512 0v1024h128v-1024h-128zM0 640v128h128v128h128v-128h128v-128h-128v-640h-128v640h-128zM256 896v128h128v-128h-128z" />
<glyph unicode="&#xfb03;" horiz-adv-x="1280" d="M1024 0v768h128v-768h-128zM1024 896v128h128v-128h-128zM512 640v128h128v128h128v-128h128v-128h-128v-640h-128v640h-128zM768 896v128h128v-128h-128zM0 640v128h128v128h128v-128h128v-128h-128v-640h-128v640h-128zM256 896v128h128v-128h-128z" />
<glyph unicode="&#xfb04;" horiz-adv-x="1280" d="M1024 0v1024h128v-1024h-128zM512 640v128h128v128h128v-128h128v-128h-128v-640h-128v640h-128zM768 896v128h128v-128h-128zM0 640v128h128v128h128v-128h128v-128h-128v-640h-128v640h-128zM256 896v128h128v-128h-128z" />
</font>
</defs>
</svg>
